#TITLE:01.19.Candybag;
#SUBTITLE:- Modjoloo;
#ARTIST:Unknown artist;
#TITLETRANSLIT:;
#SUBTITLETRANSLIT:;
#ARTISTTRANSLIT:;
#CREDIT:;
#BANNER:;
#BACKGROUND:;
#LYRICSPATH:;
#CDTITLE:;
#MUSIC:01.19.Candybag - Modjoloo.mp3;
#OFFSET:-0.100;
#SAMPLESTART:100.000;
#SAMPLELENGTH:12.000;
#SELECTABLE:YES;
#BPMS:0.000=138.020;
#STOPS:;
#BGCHANGES:;
// cache tags:
#FIRSTBEAT:0.000;
#LASTBEAT:1052.000;
#SONGFILENAME:Songs/My Creations/01.19.Candybag - Modjoloo/01.19.Candybag - Modjoloo.sm;
#HASMUSIC:1;
#HASBANNER:0;
#MUSICLENGTH:459.185;
// end cache tags

//---------------dance-single - ----------------
#NOTES:
     dance-single:
     :
     Easy:
     1:
     0.140,0.418,0.157,0.000,0.000,379.000,72.000,0.000,0.000,0.000:  // measure 1
1000
0001
0000
0000
,  // measure 2
1000
0001
0000
0000
,  // measure 3
1000
0001
0000
0000
,  // measure 4
1000
0001
0000
0000
,  // measure 5
0001
0100
0000
0000
,  // measure 6
0001
0100
0000
0000
,  // measure 7
0001
0100
0000
0000
,  // measure 8
0001
0100
0000
0000
,  // measure 9
1000
0010
0000
0000
,  // measure 10
1000
0010
0000
0000
,  // measure 11
1000
0010
0000
0000
,  // measure 12
1000
0010
0000
0000
,  // measure 13
1001
0100
0010
0100
,  // measure 14
1001
0100
0010
0100
,  // measure 15
1001
0100
0100
0010
,  // measure 16
1001
0010
0100
0100
,  // measure 17
1001
1000
1000
0001
,  // measure 18
0001
1000
1000
0001
,  // measure 19
1001
1000
0001
0001
,  // measure 20
1001
1000
1000
0001
,  // measure 21
1001
0100
0001
0100
,  // measure 22
1000
0100
0001
0100
,  // measure 23
1001
0100
0010
0100
,  // measure 24
0101
0010
0100
0001
,  // measure 25
1000
1001
0101
0101
,  // measure 26
0001
1010
1000
0001
,  // measure 27
1010
0000
0101
0000
,  // measure 28
1010
0000
0101
1000
,  // measure 29
1000
0100
0010
0001
,  // measure 30
1001
0100
0010
0001
,  // measure 31
1001
0010
0100
1000
,  // measure 32
1001
0010
0100
1000
,  // measure 33
1001
0000
0000
0001
,  // measure 34
0001
0000
0000
1000
,  // measure 35
1000
0000
0000
0001
,  // measure 36
0001
0000
0000
1000
,  // measure 37
1000
0000
0000
0001
,  // measure 38
0001
0100
0010
0100
,  // measure 39
1000
0100
0010
0100
,  // measure 40
1000
0100
0010
0100
,  // measure 41
1000
0000
1000
0000
,  // measure 42
1000
0000
0001
0000
,  // measure 43
0001
0000
0001
0000
,  // measure 44
1000
0000
1000
0000
,  // measure 45
0001
0000
0001
0100
,  // measure 46
0001
0000
0100
0001
,  // measure 47
0100
1000
0100
1000
,  // measure 48
0010
1000
0100
0001
,  // measure 49
1001
1000
0000
0110
,  // measure 50
1001
1000
0000
0110
,  // measure 51
1001
0110
0000
1001
,  // measure 52
0110
0000
1001
0000
,  // measure 53
1001
1001
0000
0101
,  // measure 54
1010
0001
0000
0001
,  // measure 55
0001
1000
0001
0001
,  // measure 56
1000
0001
1000
0001
,  // measure 57
1000
0001
0001
1000
,  // measure 58
0001
1000
0001
0001
,  // measure 59
1000
0001
0001
1000
,  // measure 60
0100
1000
0001
0010
,  // measure 61
0001
1001
0100
0100
,  // measure 62
0100
0001
0001
1000
,  // measure 63
1000
0001
0001
1000
,  // measure 64
1000
0001
0101
1010
,  // measure 65
1001
0000
0100
0000
,  // measure 66
0100
0000
0110
0000
,  // measure 67
0100
0000
0100
0000
,  // measure 68
0110
0000
0010
0000
,  // measure 69
0010
0000
0100
0000
,  // measure 70
0100
0000
0001
0000
,  // measure 71
0001
0000
0100
0000
,  // measure 72
0100
0000
1000
0000
,  // measure 73
1000
0000
0001
0000
,  // measure 74
0001
1000
0001
1000
,  // measure 75
0010
1000
0001
0100
,  // measure 76
0110
0000
0001
0000
,  // measure 77
1100
0000
0001
0000
,  // measure 78
1100
0000
0001
0110
,  // measure 79
1001
0000
0110
0001
,  // measure 80
1001
0000
0110
0001
,  // measure 81
1001
0000
0000
1000
,  // measure 82
0100
0000
0000
1000
,  // measure 83
0100
0000
0000
0001
,  // measure 84
0010
0000
0000
0001
,  // measure 85
0010
0000
0100
0010
,  // measure 86
0001
0000
0100
0010
,  // measure 87
0001
0000
0010
0001
,  // measure 88
0100
0000
0100
0001
,  // measure 89
0010
0000
0001
0100
,  // measure 90
0010
1000
1000
1000
,  // measure 91
1000
0001
0001
0001
,  // measure 92
0001
1000
1000
1000
,  // measure 93
1000
0100
0010
0100
,  // measure 94
0001
0100
0010
0100
,  // measure 95
0001
1000
0000
0000
,  // measure 96
1000
1000
0000
0000
,  // measure 97
1001
1000
0100
0010
0001
0010
0100
1000
,  // measure 98
1001
0000
0001
0000
,  // measure 99
1001
0000
1000
0000
,  // measure 100
1001
0001
1000
1000
0001
0001
1000
1000
,  // measure 101
1001
0110
0000
0110
,  // measure 102
1001
0000
0110
1001
,  // measure 103
0110
1000
0000
0001
,  // measure 104
1000
1000
0100
0001
0001
0001
1000
1000
,  // measure 105
1001
0000
0001
0000
,  // measure 106
0001
0001
0000
0000
,  // measure 107
0001
0001
0000
0000
,  // measure 108
1000
1000
0000
0000
,  // measure 109
0100
0100
0001
0010
,  // measure 110
0010
0100
0100
0010
,  // measure 111
0100
1001
1001
0000
,  // measure 112
1001
0110
1001
0110
,  // measure 113
1001
0000
0000
0000
,  // measure 114
0001
0000
0000
0000
,  // measure 115
0010
0000
0000
0000
,  // measure 116
0100
0000
0000
0000
,  // measure 117
1000
0000
0000
0000
,  // measure 118
0100
0000
0000
0010
,  // measure 119
0001
0000
0000
0000
,  // measure 120
0100
0000
0000
1000
,  // measure 121
0100
0000
0010
0000
,  // measure 122
0001
0010
0000
0000
,  // measure 123
0010
0001
0000
0000
,  // measure 124
0011
1100
0000
0000
,  // measure 125
1000
0100
1000
0000
,  // measure 126
0000
0010
0010
0100
,  // measure 127
0000
0000
0001
1000
,  // measure 128
0100
0000
0010
1000
,  // measure 129
1001
0000
0000
0000
,  // measure 130
0000
0000
0000
0000
,  // measure 131
0000
0000
0000
0000
,  // measure 132
0000
0000
0000
0000
,  // measure 133
0000
0000
0000
0000
,  // measure 134
0000
0000
0000
0000
,  // measure 135
0000
0000
0000
0000
,  // measure 136
0000
0000
0000
0000
,  // measure 137
0000
0000
0000
0000
,  // measure 138
0000
0000
0000
0000
,  // measure 139
0000
0000
0000
0000
,  // measure 140
0000
0000
0000
0000
,  // measure 141
0000
0000
0000
0000
,  // measure 142
0000
0000
0000
0000
,  // measure 143
0000
0000
0000
0000
,  // measure 144
0000
0000
0000
0000
,  // measure 145
0000
0000
0000
0000
,  // measure 146
0000
0000
0000
0000
,  // measure 147
0000
0000
0000
0000
,  // measure 148
0000
0000
0000
0000
,  // measure 149
0000
0000
0000
0000
,  // measure 150
0000
0000
0000
0000
,  // measure 151
0000
0000
0000
0000
,  // measure 152
0000
0000
0000
0000
,  // measure 153
0000
0000
0000
0000
,  // measure 154
0000
0000
0000
0000
,  // measure 155
0000
0000
0000
0000
,  // measure 156
0000
0000
0000
0000
,  // measure 157
0000
0000
0000
0000
,  // measure 158
0000
0000
0000
0000
,  // measure 159
0000
0000
0000
0000
,  // measure 160
0000
0000
0000
0000
,  // measure 161
0000
0000
0000
0000
,  // measure 162
0000
0000
0000
0000
,  // measure 163
0000
0000
0000
0000
,  // measure 164
0000
0000
0000
0000
,  // measure 165
0000
0000
0000
0000
,  // measure 166
0000
0000
0000
0000
,  // measure 167
0000
0000
0000
0000
,  // measure 168
0000
0000
0000
0000
,  // measure 169
0000
0000
0000
0000
,  // measure 170
0000
0000
0000
0000
,  // measure 171
0000
0000
0000
0000
,  // measure 172
0000
0000
0000
0000
,  // measure 173
0000
0000
0000
0000
,  // measure 174
0000
0000
0000
0000
,  // measure 175
0000
0000
0000
0000
,  // measure 176
0000
0000
0000
0000
,  // measure 177
0000
0000
0000
0000
,  // measure 178
0000
0000
0000
0000
,  // measure 179
0000
0000
0000
0000
,  // measure 180
0000
0000
0000
0000
,  // measure 181
0000
0000
0000
0000
,  // measure 182
0000
0000
0000
0000
,  // measure 183
0000
0000
0000
0000
,  // measure 184
0000
0000
0000
0000
,  // measure 185
0000
0000
0000
0000
,  // measure 186
0000
0000
0000
0000
,  // measure 187
0000
0000
0000
0000
,  // measure 188
0000
0000
0000
0000
,  // measure 189
0000
0000
0000
0000
,  // measure 190
0000
0000
0000
0000
,  // measure 191
0000
0000
0000
0000
,  // measure 192
0000
0000
0000
0000
,  // measure 193
0000
0000
0000
0000
,  // measure 194
0000
0000
0000
0000
,  // measure 195
0000
0000
0000
0000
,  // measure 196
0000
0000
0000
0000
,  // measure 197
0000
0000
0000
0000
,  // measure 198
0000
0000
0000
0000
,  // measure 199
0000
0000
0000
0000
,  // measure 200
0000
0000
0000
0000
,  // measure 201
0000
0000
0000
0000
,  // measure 202
0000
0000
0000
0000
,  // measure 203
0000
0000
0000
0000
,  // measure 204
0000
0000
0000
0000
,  // measure 205
0000
0000
0000
0000
,  // measure 206
0000
0000
0000
0000
,  // measure 207
0000
0000
0000
0000
,  // measure 208
0000
0000
0000
0000
,  // measure 209
0000
0000
0000
0000
,  // measure 210
0000
0000
0000
0000
,  // measure 211
0000
0000
0000
0000
,  // measure 212
0000
0000
0000
0000
,  // measure 213
0000
0000
0000
0000
,  // measure 214
0000
0000
0000
0000
,  // measure 215
0000
0000
0000
0000
,  // measure 216
0000
0000
0000
0000
,  // measure 217
0000
0000
0000
0000
,  // measure 218
0000
0000
0000
0000
,  // measure 219
0000
0000
0000
0000
,  // measure 220
0000
0000
0000
0000
,  // measure 221
0000
0000
0000
0000
,  // measure 222
0000
0000
0000
0000
,  // measure 223
0000
0000
0000
0000
,  // measure 224
0000
0000
0000
0000
,  // measure 225
0000
0000
0000
0000
,  // measure 226
0000
0000
0000
0000
,  // measure 227
0000
0000
0000
0000
,  // measure 228
0000
0000
0000
0000
,  // measure 229
0000
0000
0000
0000
,  // measure 230
0000
0000
0000
0000
,  // measure 231
0000
0000
0000
0000
,  // measure 232
0000
0000
0000
0000
,  // measure 233
0000
0000
0000
0000
,  // measure 234
0000
0000
0000
0000
,  // measure 235
0000
0000
0000
0000
,  // measure 236
0000
0000
0000
0000
,  // measure 237
0000
0000
0000
0000
,  // measure 238
0000
0000
0000
0000
,  // measure 239
0000
0000
0000
0000
,  // measure 240
0000
0000
0000
0000
,  // measure 241
0000
0000
0000
0000
,  // measure 242
0000
0000
0000
0000
,  // measure 243
0000
0000
0000
0000
,  // measure 244
0000
0000
0000
0000
,  // measure 245
0000
0000
0000
0000
,  // measure 246
0000
0000
0000
0000
,  // measure 247
0000
0000
0000
0000
,  // measure 248
0000
0000
0000
0000
,  // measure 249
0000
0000
0000
0000
,  // measure 250
0000
0000
0000
0000
,  // measure 251
0000
0000
0000
0000
,  // measure 252
0000
0000
0000
0000
,  // measure 253
0000
0000
0000
0000
,  // measure 254
0000
0000
0000
0000
,  // measure 255
0000
0000
0000
0000
,  // measure 256
0000
0000
0000
0000
,  // measure 257
1000
0000
0000
0000
;
